#TITLE:喵的咧;
#SUBTITLE:;
#ARTIST:Unknown artist;
#TITLETRANSLIT:;
#SUBTITLETRANSLIT:;
#ARTISTTRANSLIT:;
#CREDIT:;
#BANNER:-logo.jpg;
#BACKGROUND:.jpg;
#LYRICSPATH:;
#CDTITLE:Lan.png;
#MUSIC:.mp3;
#OFFSET:-0.040;
#SAMPLESTART:100.000;
#SAMPLELENGTH:12.000;
#SELECTABLE:YES;
#BPMS:0.000=186.100;
#STOPS:;
#BGCHANGES:;
// cache tags:
#FIRSTBEAT:8.000;
#LASTBEAT:439.000;
#SONGFILENAME:Songs/Super Dancer Online/!/!.sm;
#HASMUSIC:1;
#HASBANNER:1;
#MUSICLENGTH:142.750;
// end cache tags

//---------------dance-single - sky----------------
#NOTES:
     dance-single:
     sky:
     Hard:
     8:
     0.652,1.000,0.883,0.007,0.151,525.000,126.000,1.000,0.000,0.000:

0000
0000
0000
0000
,
0000
0000
0000
0000
,
1002
0100
0100
0100
,
0000
0100
0000
1000
0000
0100
0000
1000
0000
0100
0000
0000
1000
0000
0100
0000
,
1003
0110
0110
0110
,
0000
1000
0010
1000
0010
0000
0100
0000
,
0010
0110
0110
0110
,
0000
0100
0001
0100
0010
0000
1000
0000
,
0001
0110
0110
0110
,
0000
0010
0100
0010
0001
0000
1000
0000
,
0010
1100
0110
1100
,
0000
0100
0010
0100
0001
0000
1000
0000
,
1000
0110
0010
0011
,
0010
1100
0010
0011
,
0100
1100
0010
0011
,
1000
0110
0011
0110
,
1000
0110
1000
0110
,
0001
0110
0001
0110
,
0100
1010
0010
0101
,
0100
1010
0110
0101
,
1000
0011
0101
0011
,
0000
0100
0001
0010
1000
0000
1000
0000
,
1000
1100
0011
0011
,
0000
0100
0010
0100
1000
0000
0001
0000
,
1000
0110
0110
1100
,
0000
1000
0100
0010
0001
0000
0100
0000
,
0010
0011
0110
1100
,
0000
0001
1000
0010
0100
0000
0010
0000
,
1100
0010
0100
0001
0110
0010
0001
0100
,
1100
0100
0010
0001
0011
0010
0100
0010
,
1100
0010
0011
0100
1100
0010
0110
1000
,
0110
0001
0011
0100
1100
0010
0110
1000
,
0100
0010
0010
0100
0001
0010
0100
0010
,
1000
0100
0100
0010
0001
0100
0010
0010
,
0001
0010
1000
0010
0010
0001
0100
0010
,
0001
0000
0100
0000
0010
0000
0100
0000
1000
0000
0100
0000
1000
0100
0010
0001
,
0000
0110
0011
1100
,
0000
0100
0010
0100
1000
0000
0001
0000
,
0000
0110
0011
1100
,
0000
0010
0100
1000
0001
0000
0010
0000
,
0000
0110
0011
1010
,
0000
1000
0010
0100
0010
0000
0001
0000
,
0000
0110
0011
1100
,
0000
1000
0010
0001
0100
0000
0010
0000
,
1000
0100
0010
0100
,
0001
0010
0100
1000
,
0100
0010
0000
1000
0001
0000
0100
0000
,
0010
0010
0100
0001
,
1000
0100
0001
0010
,
0100
0010
1000
0001
,
0100
0010
0000
0100
1000
0000
0010
0000
,
0001
0000
0000
0000
0000
0000
0100
0000
0000
0000
0000
0000
0010
0000
0000
0000
0000
0000
1000
0100
0010
0001
0010
0100
,
1000
0100
0010
0001
0010
0100
1000
0100
0010
0001
0010
0100
1000
0100
0010
0001
0010
0100
1000
0100
0010
0001
0010
0100
,
1000
0100
0010
0001
0010
0100
1000
0100
0010
0001
0010
0100
1000
0100
0010
0001
0010
0100
1000
0100
0010
0001
0010
0100
,
1000
0010
0001
0100
,
0000
0100
0010
0001
0100
0000
1000
0000
,
0000
0010
0100
1000
,
0000
0010
0100
1000
0001
0000
0100
0000
,
0000
0100
0010
0001
,
0000
0100
0010
0001
0010
0000
1000
0000
,
0000
0100
0010
0100
,
0000
0010
0100
1000
0001
0000
0100
0000
,
1000
1100
0100
1100
,
0010
0011
0001
0011
,
1000
1010
0100
1010
,
0010
0101
0001
0101
,
0100
1100
0010
0110
,
0001
0110
1000
0011
,
0001
1100
0010
0101
,
0100
1010
0010
0101
,
0000
0110
0011
0011
,
0000
1000
0100
0010
0001
0000
0001
0000
,
0000
0110
1100
0011
,
0000
0001
0010
0100
1000
0000
0010
0000
,
0000
0110
0001
0011
,
0000
1000
0100
0010
0001
0000
0010
0000
,
0000
0101
0010
0101
,
0000
0010
1000
0100
0010
0000
1000
0000
,
0000
0100
0010
0001
,
0000
0010
0100
0001
1000
0000
0100
0000
,
0000
0010
0100
1000
,
0000
0100
0001
0010
0100
0000
1000
0000
,
0000
0110
1100
1100
,
0000
0100
0001
0010
1000
0000
0100
0000
,
0000
0011
1100
1100
,
0000
0010
0100
1000
0001
0000
1000
0000
,
0001
0110
0100
0110
,
0011
0010
1100
1000
,
0110
0001
0110
1000
,
1010
0100
0101
0010
,
1100
0010
0011
0100
,
1001
0100
1001
0010
,
0110
0100
0011
1000
,
0110
1000
0110
0001
,
0000
0100
0010
0001
,
0000
0100
1000
1000
0010
0000
0100
0000
,
0000
0010
0100
1000
,
0000
0100
0010
0010
0001
0000
0100
0000
,
0000
0100
0011
0010
,
0000
1000
0001
0010
0100
0000
1000
0000
,
0000
0110
1000
0110
,
0000
0001
0100
1000
0001
0000
1000
0000
,
0000
0110
0011
0110
,
0000
1100
0010
0100
0001
0000
1000
0000
,
0000
1100
0011
1100
,
0000
0011
0100
1000
0001
0000
0100
0000
,
0000
0010
0001
0100
,
0000
0100
0010
0001
1000
0000
0100
0000
,
0000
0001
0100
1000
,
0000
0100
0010
0001
1000
0000
0100
0000
;
